History
Icon-add-to-playlist Icon-download Icon-drawer-up
Share this ... ×
...
By ...
Embed:
Copy
SATURDAY NIGHT HOUSEMARES 10/29/2016
October 30, 2016 01:09 PM PDT
itunes pic

 
SATURDAY NIGHT HOUSEMARES 10/15/2016
October 30, 2016 01:03 PM PDT
itunes pic

 
Saturday Night Housemares 10/1/2016
October 01, 2016 09:36 PM PDT
itunes pic

 
Saturday Night Housemares 8/20/2016
August 21, 2016 05:48 PM PDT
itunes pic

​Those Boys, Mr. Lee - Love Constantly (Blaq Tronic's Sentimental Mix)
Daniele Mistretta - Hot Sun (Original Mix)
Sandra St. Victor - I Am Better (Honeycomb TV Track)
MRJ - Elevate (Original Mix)
Giulio Bonaccio, Karla Brown - Don't Walk Away (Guido P Saxy Mix)
Mark Francis - Come See Me(Feat. Sly Red) (Original)
DJ Kemit feat. Josh Milan - Confession (Honeycomb Vocal Mix)
Louie Vega, Brutha Basil - Freedom Of Dance (It's The Beat) (Louie Vega's Ritual Mix)
Reelsoul - Into The Light (Reelsoul Vocal Mix)
Sahib Muhammad, Lea, Muzikman Edition - It's A Man's World (Sahib Muhammad Dub)
Vanessa L. Smith - NAKED SOUL (ORIGINAL)
Kenny Dope, Lee Wilson - Turn You Up (Kenny Dope & Todd Terry Brooklyn Bridge Dubb)
"Joeflame"Joseph Davis - All Is Fair (Original Mix)
Doug Lazy - Church Clap (Spen & Thommy Remix)
Kai & Kyle, Selan - The Way It Is (Louie Vega Remix Main)
Kischa Link - I Thought You Were The One (Original Mix)
Crackazat - What You're Feeling
Demarkus Lewis - Klap Yo Handz (Original Mix)
Distant People, S.U.Z.Y - True Love (Original Mix)
Hyenah - The Wish (Manoo Likes Apfelschorle Remix)
Toni Bowens "Cocoa Radiant" - Karma (Main Mix)
Antony Fennel, Andrea Love - I'm Free (David Harness & Homero Espinosa Remix)
Michael Brodie - Jungle Paradise (Marley Marl's Original Recipe)
Mr. Lee - I Can't Forget (Vocal)

Housemares on Gold St 2/29/2016
March 09, 2016 02:59 PM PST
itunes pic

 
SATURDAY NIGHT HOUSEMARES 2/13/2016
February 14, 2016 05:33 PM PST
itunes pic

 
Saturday Nite Housemares
December 01, 2015 08:47 PM PST
itunes pic

 
SATURDAY NIGHT HOUSEMARES
October 03, 2015 09:20 PM PDT
itunes pic

PERFORMER "DJ PISTOL PETE"
TITLE "21:01"
FILE "SNH.mp3" MP3
TRACK 01 AUDIO
TITLE "El Comandante (Original Mix)"
PERFORMER "Zaid Abdulrahim"
INDEX 01 00:00:00
TRACK 02 AUDIO
TITLE "Egypt Nights (Original)"
PERFORMER "Adri Block"
INDEX 01 06:30:00
TRACK 03 AUDIO
TITLE "I Deserve To Breathe (Louie Vega Gene Perez Bass Mix)"
PERFORMER "Louie Vega, Adeva"
INDEX 01 12:38:00
TRACK 04 AUDIO
TITLE "Vaal Dam (Timmy Regisford & Adam Rios Edit)"
PERFORMER "Zulumafia"
INDEX 01 20:30:00
TRACK 05 AUDIO
TITLE "STORMS (PETE N DA MIX)"
PERFORMER "VANESSA SMITH"
INDEX 01 24:01:00
TRACK 06 AUDIO
TITLE "No Sleep"
PERFORMER "B.F.A.M."
INDEX 01 29:14:00
TRACK 07 AUDIO
TITLE "Broken Heart (Original Mix)"
PERFORMER "ZoZo"
INDEX 01 36:55:00
TRACK 08 AUDIO
TITLE "Ur Love (Shino Blackk Print)"
PERFORMER "Shino Blackk"
INDEX 01 42:31:00
TRACK 09 AUDIO
TITLE "Let Me Love You (Sophisticado Soul Vocal Mix)"
PERFORMER "BKT, Marie Tweek"
INDEX 01 45:59:00
TRACK 10 AUDIO
TITLE "Only A Fool (KC Remix) (Kenny Carpenter Heart & Soul Remix Vocal)"
PERFORMER "Teddy Douglas, Marcell Russell"
INDEX 01 51:08:00
TRACK 11 AUDIO
TITLE "Let's Go (Kenny Dope O'Gutta Mix)"
PERFORMER "Kenny Dope, House Syndicate"
INDEX 01 60:12:00
TRACK 12 AUDIO
TITLE "I'm Loving Me (Original Mix)"
PERFORMER "Gumzito, Sabrina Chyld"
INDEX 01 64:41:00
TRACK 13 AUDIO
TITLE "Slave Trade (Timmy Regisford & Adam Rios Edit)"
PERFORMER "Mr Boogie, Zulus At Work"
INDEX 01 74:28:00
TRACK 14 AUDIO
TITLE "Thank You (Dj Spen & Soulphonix Remix)"
PERFORMER "Giulio Bonaccio, Melonie Daniels"
INDEX 01 76:44:00
TRACK 15 AUDIO
TITLE "Angel In Disguise (Libation Vocal By Ian Friday)"
PERFORMER "Maritri"
INDEX 01 80:22:00
TRACK 16 AUDIO
TITLE "Deep In The Bottom (of Africa)"
PERFORMER "Monique Bingham & Black Coffee"
INDEX 01 88:05:00
TRACK 17 AUDIO
TITLE "Back 2 U (Oscar P Remix)"
PERFORMER "Demarkus Lewis"
INDEX 01 96:36:00
TRACK 18 AUDIO
TITLE "WATCH"
PERFORMER "ANITA B"
INDEX 01 101:11:00
TRACK 19 AUDIO
TITLE "All I Want To Do (Luyo Hekate Mix)"
PERFORMER "Su Su Bobien"
INDEX 01 104:13:00
TRACK 20 AUDIO
TITLE "Fallin' (Original Mix)"
PERFORMER "Rhemi, Hanlei"
INDEX 01 110:17:00
TRACK 21 AUDIO
TITLE "STORMS (ORIGINAL)"
PERFORMER "VANESSA SMITH"
INDEX 01 119:06:00

It's a Sunday ! Facethebasslive 8/30/2015
September 01, 2015 05:56 PM PDT
itunes pic